roar -





SEEDS 21988
LEECHS 29744
LANGUAGE
ENGLISH
SIZE 700MB

Flowers - automa - DRACULA - ANABELLE - Gone Girl - THE BOXTROLLER


SEEDS 1322
LEECHS 131
SIZE
 600 PLUS



seeds 13343
leechs 74654
language
english
size
700 plus





Writer: Gary Dauberman
Stars: Ward Horton, Annabelle Wallis, Alfre Woodard
Genres: Horror
Country: USA
Language: English
SEEDS 34322
LEECHS 43432





SEEDS  17564
LEECHS 34675
LANGUAGE
ENGLISH
SIZE
600  PLUS




SEEDS  7564
LEECHS 8675
LANGUAGE
ENGLISH
SIZE
600PLUS







Flowers in the Attic 2014 Hollywood Movie HDRip Torrent Download,Flowers in the Attic 2014 HDRip Download Torrent,Flowers in the Attic 2014 Download Movie hdrip Torrent,Flowers in the Attic 2014 Full Torrent Download HDRip Xvdi,Flowers in the Attic 2014 English Movie HDRip Torrent Download

Khoobsurat (2014) - Daawat-E-Ishq (2014) - Desi Kattey (2014) Sonali Cable DVD


SEEDS 16353
LEECHS 6453
600 PLUS MB



SEEDS 5476
LEECHS 57977
LANGUAGE
HINDI
SIZE
700PLUS






SEEDS 544
LEECHS 36977
LANGUAGE
HINDI
SIZE
700PLUS



TeamTNT Exclusive

TeamTNT Exclusive

SEEDS 30997
LEECHS 46977
LANGUAGE
HINDI
SIZE
700PLUS

Khoobsurat Hon3y torrent


SEEDS 23244
LEECHS 45665
LANGUAGE
HINDI
SIZE
700PLUS
TORRENT DOWNLOAD




SEEDS 1343
LEECHS 187755
LANGUAGE
HINDI 
SIZE
711 MB




mary kom FINDING FANNY - download


  Codec ID : 55
Codec ID/Hint : MP3
Duration : 1h 40mn
Bit rate mode : Constant
Bit rate : 96.0 Kbps
Channel(s) : 2 channels
Sampling rate : 32.0 KHz
Compression mode : Lossy
Stream size : 69.2 MiB (10%)
Alignment : Aligned on interleaves
SEEDS 25433
LEECHS 33455
LANGUAGE
HINDI
MOVIE SIZE
705
TORRENT DOWNLOAD






l

SEEDS 35344
LEECHS 46343
LANGUAGE
ENGLISH
SIZE
700 PLUS

entertainment - SINGAM - WAAR 2014 - mardaani - H-N YEAR



SEEDS 75644
LEECHS 98545
LANGUAGE
ENGLISH
SIZE
700 PLUS





SEEDS 345444
LEECHS 24545
LANGUAGE
ENGLISH
SIZE
700 PLUS





SEEDS 3094
LEECHS 5464
LANGUAGE
ENGLISH
SIZE
700 PLUS






SEEDS 48655
LEECHS 54646
LANGUAGE
URDU
SIZE
1.14PLUS
TORRENT DOWNLOAD






SEEDS 75655
LEECHS 5464
LANGUAGE
HINDI
SIZE
700 PLUS
TORRENT DOWNLOAD





entertainment 



ID : 1
Format : AVC
Format/Info : Advanced Video Codec
Format profile : Baseline@L1.3
Format settings, CABAC : No
Format settings, ReFrames : 2 frames
Codec ID : V_MPEG4/ISO/AVC
Duration : 2h 18mn
Bit rate : 512 Kbps
Width : 640 pixels
Height : 256 pixels
Display aspect ratio : 2.500
Frame rate mode : Constant
Frame rate : 24.000 fps
Color space : YUV
Chroma subsampling : 4:2:0
Bit depth : 8 bits
Scan type : Progressive
Bits/(Pixel*Frame) : 0.130
Stream size : 501 MiB (71%)

seeds 7585
leechs 85765